Diese Seite verwendet Cookies. Durch die Nutzung unserer Seite erklären Sie sich damit einverstanden, dass wir Cookies setzen. Weitere Informationen

Herzlich Willkommen auf YTForum.de, dem größten deutschsprachigen YouTube Forum.

Bei uns findest du eine tolle, freundliche und engagierte Community, die mit hochwertigen Inhalten, hilfreichen Tipps und Insiderwissen aufwarten kann. Auch warten viele interessante Themen zu Videobearbeitung, Soundbearbeitung, Netzwerken, Monetarisierung und vielem mehr auf dich. Präsentiere deine Videos der Community und erhalte hilfreiche Tipps, wie du sie verbessern kannst. Organisiere Treffen und Kooperationen mit anderen YouTubern und vernetze dich auch abseits von YouTube.

Wir würden uns freuen, wenn du ein Teil dieser großartigen Community wirst: Jetzt registrieren

    Hallo liebes YT-Forum,

    ich habe mich soeben hier angemeldet, da ich hoffe, dass ich hier ein wenig mehr Hilfe und Antworten bekomme als aufm LPF.

    Ohne lange um den heißen Brei drum rum zu reden, komme ich direkt mal zu meinem Problem:
    Ich weiß jetzt nicht in wie Fern MeGUI auf diesem Forum verbreitet ist und ob man das hier überhaupt benutzt oder weiterempfiehlt, jedoch habe ich seit neusten ein Problem mit meinem Renderverfahren.

    Für die, die nicht wissen was z.B. der SagaraS Script Maker (kurz: SSM) ist, der kann mir hier sicherlich nicht weiterhelfen.
    Für alle anderen die wissen was es ist und sich in dieser Materie eventuell auch ein bisschen auskennen, die können mir bestimmt bei meinem Problem was ich habe weiterhelfen.

    ALSO:
    Ich render bzw. encodiere meine Videos immer via AviSynth. Das bedeutet, über MeGUI. Da MeGUI nur mit AviSynth-Scripten arbeitete, hatte der liebe SagaraS die nette Idee, ein Programm zu programmieren, was diese Scripte ganz einfach erstellt. Dies ist im Grunde nichts weiter, als MeGUI zu sagen, welche Auflösung und allgemeine Informationen das Video hat. Neuerdings habe ich aber das Problem, dass ich mit dem SSM keine Scripte mehr erstellen kann. Also kann ich schon, aber sobald ich das Script in MeGUI ziehe, bekomme ich leider nur noch eine unendliche Warteschleife, im Sinne von: Er will das Script nicht laden.

    Ich habe schon versucht andere Videos zu encodieren und dies hat komischerweise ohne Probleme funktioniert. An der Stelle habe ich die Vermutung aufgestellt, dass ich meine Videos falsch aufgenommen habe. Seit kurzem bin ich nämlich von Shadowplay auf OBS gewechselt. Ich glaube ich brauche nicht zu begründen warum...

    Hier einmal die MediaInfo von einem Video wwas ich mit OBS Studio aufgenommen habe:
    Spoiler anzeigen

    Format : MPEG-4
    Format profile : Base Media
    Codec ID : isom (isom/iso2/avc1/mp41)
    File size : 29.3 GiB
    Duration : 21 min 26 s
    Overall bit rate mode : Variable
    Overall bit rate : 196 Mb/s
    Writing application : Lavf57.84.100


    Video
    ID : 1
    Format : AVC
    Format/Info : Advanced Video Codec
    Format profile : High 4:4:4 Predictive@L4.2
    Format settings : 1 Ref Frames
    Format settings, CABAC : No
    Format settings, Reference frames : 1 frame
    Format settings, GOP : M=1, N=60
    Codec ID : avc1
    Codec ID/Info : Advanced Video Coding
    Duration : 21 min 26 s
    Bit rate mode : Variable
    Bit rate : 195 Mb/s
    Maximum bit rate : 40.0 Mb/s
    Width : 1 920 pixels
    Height : 1 080 pixels
    Display aspect ratio : 16:9
    Frame rate mode : Constant
    Frame rate : 60.000 FPS
    Color space : YUV
    Chroma subsampling : 4:2:0
    Bit depth : 8 bits
    Scan type : Progressive
    Bits/(Pixel*Frame) : 1.568
    Stream size : 29.2 GiB (100%)
    Color range : Limited
    Matrix coefficients : BT.709
    Codec configuration box : avcC


    Audio #1
    ID : 2
    Format : AAC LC
    Format/Info : Advanced Audio Codec Low Complexity
    Codec ID : mp4a-40-2
    Duration : 21 min 26 s
    Bit rate mode : Variable
    Bit rate : 211 kb/s
    Maximum bit rate : 320 kb/s
    Channel(s) : 2 channels
    Channel layout : L R
    Sampling rate : 48.0 kHz
    Frame rate : 46.875 FPS (1024 SPF)
    Compression mode : Lossy
    Stream size : 32.4 MiB (0%)
    Title : Track1
    Default : Yes
    Alternate group : 1


    Audio #2
    ID : 3
    Format : AAC LC
    Format/Info : Advanced Audio Codec Low Complexity
    Codec ID : mp4a-40-2
    Duration : 21 min 26 s
    Bit rate mode : Variable
    Bit rate : 288 kb/s
    Maximum bit rate : 320 kb/s
    Channel(s) : 2 channels
    Channel layout : L R
    Sampling rate : 48.0 kHz
    Frame rate : 46.875 FPS (1024 SPF)
    Compression mode : Lossy
    Stream size : 43.8 MiB (0%)
    Title : Track2
    Default : No
    Alternate group : 1



    Ich sehe da jetzt eigentlich keine Auffälligkeiten. Aber vielleicht ja ihr?

    Unter anderem ist es mir auch nicht mehr möglich, meine Audio Dateien via VirtualDub (kurz: VD) im SSM zu extrahieren, so, dass ich es z.B. noch mit Audacity ein bisschen nachbearbeiten kann. Das bedeutet, dass ich diese Fehlermeldung hier bekomme: directupload.net/file/d/5521/z69fx2za_png.htm

    Daraufhin wurde mir empfohlen, die Videos im SSM via L-Smash anstatt mit FFMS2 zu laden. Jedoch hat dies leider auch nicht funktioniert, da hier VD einfach (ohne eine Fehlermeldung) abstürzt (Keine Rückmeldung). Man bedenke jedoch, dass es mit jedem anderen Video was nicht mit OBS Studio aufgenommen worden ist, ohne Probleme Funktioniert. Die AviSynth-Versionen sind bei beiden Programmen auch denke ich gleich. Weiß nur leider nicht wo man das bei MeGUI einsehen kann, welche Version von Avi-Synth gerade verwendet wird.

    Das komische an der ganzen Sache ist aber, dass wenn ich das mit OBS Studio aufgenommene Video via den internen Script Maker von MeGUI lade und dann versuche zu encodieren, funktioniert ist. Nun ist da natürlich meine Frage, ob es nun an den Videos liegt, oder an SSM...

    Ich hoffe das ihr mir bei diesem Problem weiterhelfen könnt.
    LG
    • 00

    Vor einem Moment

    Hej Du

    Vielleicht hilft dir das weiter:
Exit